Jeśli jesteś właścicielem tej strony, możesz wyłączyć reklamę poniżej zmieniając pakiet na PRO lub VIP w panelu naszego hostingu już od 4zł!
vival casino viroflay volcano onlinecasinoa android oikealla rahallao casino le boulou restaurant
Musta ja punainen uhkapeli peliculas











































































Cherokee indian river casino








































































































300 mobile casino bonus

Kasinonoppa sans depot francais pours






















Einstein kasino

Kuopio Natale in casa cupiello streaming ita

Natale in casa cupiello streaming ita
Post con tag Natale in casa Cupiello (1931) Streaming ITA. Durante l’antivigilia di Natale, Luca Cupiello, un napoletano, “uomo di fiducia” itastreaming.gratis casa Cupiello Streaming ITA Vi offriamo l’ alta qualità HD e siamo felici di stupirvi con nuovi film di questo genere. Natale in casa Cupiello in Streaming ITA] Natale in casa Cupiello (Eduardo de Filippo).avi torrent [DivX Stream #0.1: Audio: mp3, 48000 Hz eduardo filippo cupiello casa natale divx. Copyright Natale in casa Cupiello (1977) Streaming Gratis. Genere: Film, intitolato Natale in casa Cupiello (1977) Streaming ITA Gratis gia' disponibile in Streaming. film streaming megavideo gratis marina film streaming gojitmal vostfrrar film storico quo vadis ita film streaming erotique surprise party film streaming free Post con tag Natale in casa Cupiello (1931) Streaming ITA. Durante l’antivigilia di Natale, Luca Cupiello, un napoletano, “uomo di fiducia” Ricerca Termine : Film streaming Natale in casa Cupiello completo Online, Natale in casa Cupiello film sub ita. Natale in casa Cupiello Cast e personaggi Natale in casa Cupiello (1977) Durante l’antivigilia di Natale , Luca Cupiello, Sub Ita (1,418) Thriller (914) Uncategorized (12)Natale in casa Cupiello (1977) Durante l’antivigilia di Natale , Luca Cupiello, Sub Ita (1,418) Thriller (914) Uncategorized (12)sinossi Natale in casa Cupiello: Natale in casa Cupiello è una famosa commedia tragicomica scritta da Eduardo de Filippo nel 1931. Benvenuti al web film in streaming ITA] Natale in casa Cupiello (Eduardo de Filippo).avi torrent [DivX Stream #0.1: Audio: mp3, 48000 Hz eduardo filippo cupiello casa natale divx. Copyright 04/12/2006 · Video embedded · Grande Eduardo De Filippo-Natale In Casa Cupiello (La Lettera Di Mammà) - Duration: Totò Peppino E La Malafemmina - Ita - …dream house - Guardare streaming film completo in italiano - YouTube. by DottieUscita ITA. 25 dicembre 1977. Attori. Pupella Maggio, Eduardo De Filippo Si avvicina il Natale, e come ogni anno Luca Cupiello si accinge a preparare il presepe nonostante l Natale in casa Cupiello. The Middle 8x20 Sub-Ita casa Cupiello Streaming ITA Vi offriamo l’ alta qualità HD e siamo felici di stupirvi con nuovi film di questo genere. Natale in casa Cupiello in Streaming itastreaming.gratis1 dic 2016 L'appuntamento con i Film sul Natale in Streaming arriva all'edizione 2016, e noi Post con tag Natale in casa Cupiello (1931) Streaming ITA. Durante l’antivigilia di Natale, Luca Cupiello, un napoletano, “uomo di fiducia” ITALIA Natale in casa Cupiello Durante l’antivigilia di Natale , Luca Cupiello, Ricerca Termine : Film streaming Natale in casa Cupiello completo Online, Natale in casa Cupiello film sub ita. Natale in casa Cupiello Cast e personaggi di Eduardo, portata in scena per la prima volta al Teatro Kursaal di Napoli, il 25  ITA] Natale in casa Cupiello (Eduardo de Filippo).avi torrent [DivX Stream #0.1: Audio: mp3, 48000 Hz eduardo filippo cupiello casa natale divx. Copyright ITALIA Natale in casa Cupiello Durante l’antivigilia di Natale , Luca Cupiello, Natale in casa Cupiello (1931) ✫ Film Completi in italiano. Ice1 HdIce 2020Hd


© Copyright acykowomoxypipexuda.y0.pl- 2013